Windows 8.1 Preview - Первый взгляд (2013) PCRec

Windows 8.1 Preview - Первый взгляд (2013) PCRec

Windows 8.1 Preview - Первый взгляд (2013) PCRec

Название: Windows 8.1 Preview - Первый взгляд
Год выпуска: 2013
Жанр: Обучающее видео
Продолжительность: 00:17:11
Качество видео: PCRec
Видеокодек: AVC
Битрейт видео: ~2072 Кбит/сек
Размер кадра: 1920х1080
Аудиокодек: AAC
Битрейт аудио: 192 Кбит/сек Описание:
Менее чем через год после выпуска Windows 8 Microsoft представила полнофункциональную предварительную версию Windows 8.1. Это достаточно необычное явление, так как Windows 8.1 — нечто большее, чем хорошо известные сервис-пакеты, которые обычно приносят исправления ошибок

Видео
Идентификатор : 1
Формат : AVC
Формат/Информация : Advanced Video Codec
Профиль формата : High@L4.0
Параметр CABAC формата : Да
Параметр ReFrames формата : 1 кадр
Параметр GOP формата : M=1, N=48
Идентификатор кодека : avc1
Идентификатор кодека/Информация : Advanced Video Coding
Продолжительность : 17 м.
Битрейт : 2072 Кбит/сек
Максимальный битрейт : 12,1 Мбит/сек
Ширина : 1920 пикселей
Высота : 1080 пикселей
Соотношение сторон : 16:9
Режим частоты кадров : Постоянный
Частота кадров : 24,000 кадра/сек
Цветовое пространство : YUV
Субдискретизация насыщенности : 4:2:0
Битовая глубина : 8 бит
Тип развёртки : Прогрессивная
Бит/(Пиксели*Кадры) : 0.042
Размер потока : 255 Мбайт (91%)
Дата пометки : UTC 2013-06-26 17:21:45 Аудио
Идентификатор : 2
Формат : AAC
Формат/Информация : Advanced Audio Codec
Профиль формата : LC
Идентификатор кодека : 40
Продолжительность : 17 м.
Вид битрейта : Переменный
Битрейт : 192 Кбит/сек
Максимальный битрейт : 201 Кбит/сек
Каналы : 2 канала
Расположение каналов : Front: L R
Частота : 44,1 КГц
Метод сжатия : С потерями
Размер потока : 23,6 Мбайт (8%)
Заголовок : IsoMedia File Produced by Google, 5-11-2011
Дата кодирования : UTC 2013-06-26 17:21:32
Дата пометки : UTC 2013-06-26 17:21:45

 

Windows 8.1 Preview - Первый взгляд (2013) PCRec

 

Windows 8.1 Preview - Первый взгляд (2013) PCRec скачать торрент